#TITLE:Mercury GO;
#SUBTITLE:- Pumpkin Scissors Ending;
#ARTIST:Ueda Kana & Yukai na Nakama Tachi;
#TITLETRANSLIT:;
#SUBTITLETRANSLIT:;
#ARTISTTRANSLIT:;
#CREDIT:LK4D4;
#BANNER:PS E banner vid.avi;
#BACKGROUND:PS bg1.jpg;
#LYRICSPATH:Pumpkin Scissors E.lrc;
#CDTITLE:lkred1.png;
#MUSIC:Pumpkin Scissors E.mp3;
#OFFSET:0.260;
#SAMPLESTART:52.479;
#SAMPLELENGTH:12.000;
#SELECTABLE:YES;
#BPMS:0.000=123.000;
#STOPS:;
#BGCHANGES:0.000=Pumpkin Scissors E Video.avi=1.000=0=0=1,
182.000=PS bg2.jpg=1.000=1=0=1,
99999=-nosongbg-=1.000=0=0=0 // don't automatically add -songbackground-
;
// cache tags:
#FIRSTBEAT:1.000;
#LASTBEAT:183.000;
#SONGFILENAME:songs/Otaku's Dream 3rd Anime Mix/[LK4D4] Mercury GO - Pumpkin Scissors ED/Pumpkin Scissors E.sm;
#HASMUSIC:1;
#HASBANNER:1;
#MUSICLENGTH:91.013;
// end cache tags

//---------------dance-single - Complete----------------
#NOTES:
     dance-single:
     Complete:
     Medium:
     7:
     0.438,0.427,0.121,0.088,0.302,260.000,11.000,8.000,0.000,0.000:

0000
0000
0000
0000
,
0000
0000
0000
0000
,
0000
0000
0000
0000
,
0000
0000
0000
0000
,
0000
0000
0000
0000
0000
0000
0100
0010
0000
0100
0010
0000
1000
0010
0000
0000
,
0000
0000
0000
0000
1000
0000
0100
0010
0000
0100
0010
0000
0001
0000
0000
0000
,
0000
0000
0000
0000
0000
0000
0100
0010
0000
0100
0010
0000
1000
0010
0000
0000
,
0000
0000
0000
0000
1000
0000
0100
0010
0000
0100
0010
0000
0001
0000
0000
0000
,
0000
0000
0100
0001
0100
0001
1000
0010
,
1000
0000
0000
0000
0010
1000
0010
1000
0010
0000
0100
0000
0001
0000
0000
0000
,
1000
0000
0100
1000
0100
1000
0100
0010
,
0001
0000
0000
0000
0010
0001
0010
0001
0010
0000
0100
0000
1000
0000
0000
0000
,
0010
0000
0000
0000
0100
0000
0001
0100
0000
0000
0000
0000
0000
0000
0100
0000
,
0010
0000
1000
0000
0010
0000
1000
0010
0000
0000
0000
0000
0100
0000
0000
0000
,
0001
0000
0000
0000
0010
0000
0100
1000
0000
0000
0000
0000
0000
0000
0100
0000
,
1000
0000
0100
0000
0010
0000
0001
0010
0000
0000
0000
0000
0100
0000
1000
0000
,
0010
0000
1000
0000
0100
0000
1000
0000
0001
0000
0100
1000
0000
0000
0000
0000
,
2200
3300
0100
0001
0100
0010
1000
0000
,
0100
0000
0000
0000
1000
0100
1000
0100
1000
0000
0001
0000
0010
0000
0000
0000
,
0001
0000
0100
0001
1000
0010
1000
0010
,
0100
0000
0000
0000
0001
0100
0001
0100
0001
0000
1000
0000
0010
0000
0000
0000
,
1000
0000
0000
0000
0010
0000
0000
0100
0010
0000
0000
0000
1000
0000
0001
0000
,
1000
0000
0001
0000
0010
0000
0000
0100
0010
0000
0000
0000
0100
0000
1000
0000
,
0100
0000
1000
0000
0001
0000
0000
0010
0001
0000
0000
0000
0100
0000
0010
0000
,
0100
0000
0010
0000
1000
0000
0000
0010
1000
0000
0000
0000
0001
0000
1000
0000
,
0001
0010
0100
1000
0010
1000
0110
0220
,
0000
0330
0000
0000
,
0000
0000
0000
0000
0001
0000
0100
0000
1000
0000
0100
0000
0001
0000
0100
0010
,
0000
0000
0000
1000
0010
1000
0010
1000
0000
0000
0000
0000
0000
0000
0000
0000
,
0000
0000
0000
0000
0100
0000
0001
0000
0100
0000
1000
0000
0100
0000
0010
0001
,
0000
0000
0000
0100
0000
0001
0100
0001
0000
0010
0000
0000
0000
0000
0000
0000
,
0000
0000
0000
0000
0001
0100
0001
0000
1000
0000
0001
0100
0001
0000
1000
0010
,
0000
0000
1100
0000
0000
1000
0100
0000
1000
0000
0001
1000
0100
0000
0010
0001
,
0000
0000
0101
0000
0000
0000
1000
0000
0100
0000
1000
0000
0010
0000
0000
0100
,
0000
1010
0101
1100
,
0011
0220
0330
0000
,
0000
0000
1000
0001
1000
0001
1000
0001
,
1000
0001
1000
0001
1000
0001
1000
0001
,
1000
0001
1000
0001
1000
0001
1000
0001
,
1000
0001
1000
0001
1000
0001
1000
0001
,
1000
0000
0000
0000
0000
0000
0100
0010
0000
0100
0010
0000
1000
0000
0000
0010
,
0000
0000
0000
0000
1000
0000
0100
0010
0000
0100
0010
0000
0001
0000
0000
1000
,
0000
0000
0010
0000
0000
0000
0100
0010
0000
0100
0001
0000
0010
0000
0000
0100
,
0000
0000
1000
0000
0000
0000
0001
0010
0000
0001
0010
0000
0100
0000
0000
1000
,
0000
0010
0220
0000
0000
0000
0000
0000
,
0000
0000
0000
0330
;

//---------------dance-single - Blank----------------
#NOTES:
     dance-single:
     Blank:
     Easy:
     5:
     0.369,0.427,0.110,0.066,0.016,219.000,10.000,6.000,0.000,0.000:


0000
0000
0000
0000
,
0000
0000
0000
0000
,
0000
0000
0000
0000
,
0000
0000
0000
0000
,
0000
0000
0000
1000
0001
1000
0001
1000
,
0001
1000
0010
1000
0010
1000
0010
1000
,
0010
1000
0100
0010
0001
0010
0001
0010
,
0001
0100
0010
1000
0010
1000
0010
1000
,
0010
0000
1000
1000
0100
0100
0010
0010
,
0001
0000
1000
0001
1000
0001
0100
0010
,
0000
0000
0100
0100
0001
0001
0010
0010
,
0100
0000
1000
0001
1000
0001
1000
0000
,
0000
0000
1000
0010
1000
0000
0000
0100
,
1000
0100
0010
0001
0010
0000
0000
0000
,
0000
0000
0001
0100
0001
0000
0000
1000
,
0010
1000
0100
1000
0100
0000
0000
0000
,
0000
0000
0010
0100
0010
0001
0100
0000
,
2010
3000
0100
1000
0100
1000
0010
1000
,
0001
0000
0010
0001
0010
0100
0000
0000
,
0000
0000
1000
0010
1000
0010
0100
0001
,
0100
0000
0001
0010
0001
0100
0000
0000
,
0000
0000
0001
1000
0001
0000
0000
1000
,
0001
0100
0010
0100
0010
0000
0000
0000
,
0000
0000
1000
0001
1000
0000
0000
0100
,
1000
0100
0010
0001
0010
0000
0000
0000
,
0000
0000
0100
0100
0010
0010
1010
2020
,
0000
3030
0000
0000
,
0000
0000
1000
0010
0100
0001
0100
0010
,
1000
0000
0100
1000
0100
0000
0000
0000
,
0000
0000
0010
0001
1000
0100
1000
0001
,
0010
0000
0001
0100
0001
0100
0000
0000
,
0000
0000
0000
0000
0010
0000
1000
0000
0010
0000
0100
0000
0001
0000
0100
0001
,
0000
0000
1010
0000
0000
0000
0001
0000
0010
0000
0001
0000
1000
0000
0100
1000
,
0000
0000
0011
0000
0000
0000
0010
0000
0100
0000
0010
0000
0100
0000
0000
0100
,
0000
0011
1100
0101
,
1010
0220
0330
0000
,
0000
1000
0001
1000
,
0001
1000
0001
1000
,
0001
1000
0001
1000
,
0001
1000
0001
1000
,
0001
0000
0000
1000
0001
1000
0001
1000
,
0001
1000
0010
1000
0010
1000
0010
1000
,
0010
1000
0100
0010
0001
0010
0001
0010
,
0001
0100
0010
1000
0010
1000
0010
1000
,
0100
1000
0200
0000
0000
0000
0000
0000
,
0000
0000
0000
0300
;

//---------------dance-single - Blank----------------
#NOTES:
     dance-single:
     Blank:
     Hard:
     8:
     0.556,0.603,0.374,0.088,0.467,312.000,34.000,8.000,0.000,1.000:

0000
0000
0000
0000
,
0000
0000
0000
0000
,
0000
0000
0000
0000
,
0000
0000
0000
0000
,
0000
0000
0000
0000
0000
0000
1000
0010
0000
0010
0100
0000
0010
1000
0010
0100
,
0010
1000
0100
0000
0000
0000
0001
0010
0000
0010
0100
0000
0010
0001
0010
0100
,
0010
0001
0010
0000
1000
0000
1000
0100
0000
0100
0010
0000
0100
1000
0100
0010
,
0100
1000
0100
0000
0000
0000
0010
0001
0000
0001
0100
0000
0010
0100
0001
0100
,
0010
0100
0001
0000
1000
0000
1000
0000
0100
0000
0100
0010
0100
0000
0010
0001
,
0010
0000
0000
0000
0100
0001
0100
0001
0100
0000
0010
0000
1000
0000
0010
0000
,
1000
0000
0000
0000
0100
0000
1000
0000
0100
0000
1000
0100
0010
0000
0001
0010
,
0001
0000
0000
0000
0100
0001
0100
0001
0100
0000
0010
0000
1000
0000
0010
0000
,
1000
0000
0000
0000
1001
0000
0001
0010
0000
0000
0000
0000
0000
0000
0001
0000
,
0010
0000
0100
0000
1001
0000
1000
0010
0000
0000
0000
0000
0000
0000
1010
0000
,
0110
0000
0101
0000
0101
0000
1000
0010
0000
0000
0000
0000
0000
0000
1000
0000
,
0100
0000
0010
0000
1001
0000
0001
0100
0000
0000
0000
0000
0000
0000
0011
0000
,
0110
0000
1100
0000
0100
0000
0010
0000
0001
0000
0100
1000
0000
0000
0000
0000
,
2200
0000
3300
0000
0010
0000
0100
0000
0010
0000
1000
0010
1000
0001
0000
0010
,
0000
0000
0000
0000
0100
0010
0100
0010
0001
0000
0100
0000
0010
0000
1000
0000
,
0010
0000
0000
0000
0100
0000
0001
0000
0010
0000
0100
1000
0100
0000
0010
0001
,
0000
0000
0000
0000
0100
0001
0100
0001
0000
1000
0010
0000
1000
0000
0001
0000
,
0100
0000
0000
0000
1000
0000
0100
0010
0000
0000
0000
0000
0000
0000
0100
0000
,
0010
0000
0001
0000
1001
0000
0100
0010
0000
0000
0000
0000
0000
0000
1010
0000
,
0110
0000
0101
0000
2000
0000
3000
0010
0000
0000
0000
0000
0000
0000
0100
0000
,
1000
0000
0010
0000
0100
0000
0001
0010
0000
0000
0000
0000
0000
0000
1100
0000
,
1001
0101
1000
0010
0100
0001
0110
2002
,
0000
0000
3003
0000
0000
0000
0000
0000
0000
0000
0000
0000
0011
0000
0000
0101
,
0000
0000
1010
0000
1000
0000
0010
0000
1000
0000
0100
0000
0010
0000
0001
0100
,
0001
0000
0000
0100
1000
0100
0001
0010
0000
0000
0000
0000
0000
0000
0000
0000
,
0000
0000
0000
0000
0001
0000
0010
0000
0001
0000
0100
0000
0010
0000
1000
0100
,
0000
0000
0000
1000
0100
0001
0100
1000
0000
0010
0000
0000
0000
0000
0000
0000
,
0000
0000
0000
0000
0100
0001
0010
0000
0100
0000
1000
0010
0100
0000
0010
1000
,
0000
0000
0011
0000
0000
1000
0010
0000
0100
0000
0001
0010
0100
0000
0010
0001
,
0000
0000
1010
0000
0000
0000
0001
0000
0010
0000
0100
0000
1000
0000
0000
0011
,
0000
0000
0101
0001
1001
1000
1100
0100
,
0110
0000
0010
0000
0011
0000
0001
0100
0000
0100
0010
0000
0010
1000
0000
0000
,
0100
1000
0100
0000
1000
0000
0001
0000
1000
0000
0001
0000
1000
0000
0001
0000
,
1000
0001
1000
0001
1000
0001
1000
0001
,
1000
0001
1000
0001
1000
0001
1000
0001
,
1000
0001
1000
0001
1000
0001
1000
0001
,
0100
0010
0100
0010
0100
0000
0000
0000
0000
0000
0000
0000
0010
0000
1000
0000
0000
0000
1000
0000
0100
0000
0000
0000
0110
0000
0000
0000
0000
0000
0011
0000
,
0000
0000
0000
0000
0000
0000
1000
0000
0001
1000
0000
0001
0100
0000
0010
1000
,
0000
0010
0100
0000
0000
0000
0001
0000
1000
0001
0000
1000
0100
0000
0010
0100
,
0000
0000
0000
0000
0000
0000
1000
0000
0001
1000
0000
0001
0100
0000
0010
0100
,
0000
0000
0010
0000
2002
0000
0000
0000
0000
0000
0000
0000
0000
0020
0000
0000
,
0000
0000
0000
3033
;

//---------------dance-single - Blank----------------
#NOTES:
     dance-single:
     Blank:
     Beginner:
     2:
     0.116,0.176,0.000,0.011,0.000,73.000,0.000,1.000,0.000,0.000:


0000
0000
0000
0000
,
0000
0000
0000
0000
,
0000
0000
0000
0000
,
0000
0000
0000
0000
,
0000
0000
0000
0010
,
0010
0000
0000
0100
,
0100
0000
0000
1000
,
1000
0000
0000
0001
,
0001
0001
0000
0100
,
0000
1000
0000
0000
,
0000
1000
0000
0010
,
0000
0100
0100
0000
,
0000
0001
0001
0000
,
0000
1000
1000
0000
,
0000
0010
0010
0000
,
0000
0100
0100
0000
,
0000
1000
0010
0010
,
0000
0100
0100
0000
,
0000
0001
0001
0000
,
0000
0010
0010
0000
,
0000
0100
0100
0000
,
0000
1000
1000
0000
,
0000
0100
0100
0000
,
0000
0010
0010
0000
,
0000
0001
0001
0000
,
0000
0001
0010
0010
,
0000
0000
0000
0000
,
0000
1000
0000
0100
,
0000
1000
0000
0000
,
0000
0001
0000
0100
,
0000
0001
0000
0000
,
0000
0010
0000
0010
,
0000
0010
0000
0000
0000
0000
0100
0000
,
0000
0100
0000
0000
0000
0000
1000
0000
,
0000
0100
0000
0010
,
0000
0001
0000
0000
,
0000
0000
0000
0000
,
0000
0000
0000
0000
,
0000
0000
0000
0000
,
0000
0000
0000
0000
,
0000
0000
1000
1000
,
1000
0000
0010
0010
,
0010
0000
0001
0001
,
0001
0000
0100
0100
,
0100
0200
0000
0000
,
0000
0000
0000
0300
;

//---------------dance-single - Blank----------------
#NOTES:
     dance-single:
     Blank:
     Challenge:
     10:
     0.833,0.754,1.000,0.253,0.769,402.000,106.000,23.000,5.000,3.000:

0000
0000
0000
0000
0101
0000
0100
0010
1000
0000
0010
0100
0000
0010
1000
0000
,
0001
0100
0010
0000
1100
0000
0100
0010
0001
0000
0010
0100
0000
0010
0001
0000
,
1000
0100
0010
0000
0102
0000
1000
0100
1000
0000
0100
0010
0003
1000
0200
0000
,
1000
0001
1000
0000
0010
0000
1300
0100
0010
0000
1000
0100
0000
0010
0100
0000
,
1000
0100
0010
0001
1000
0100
0010
0001
0000
0000
0000
0000
1000
0000
0010
0000
0000
0000
0010
0000
0100
0000
0000
0000
0010
0000
1000
0000
0010
0000
0100
0000
,
0010
1000
0100
0000
0000
0000
0001
0010
0000
0010
0100
0000
0010
0001
0010
0000
,
0010
0001
0010
0000
1000
0000
1000
0100
0000
0100
0010
0000
0100
1000
0100
0000
,
0100
1000
0100
0000
0000
0000
0010
0001
0000
0001
0100
0000
0110
0000
0100
0010
,
0000
1000
0000
0000
1100
0000
0101
0000
1100
0000
0101
0200
0000
0300
0010
1000
,
0000
0000
0000
0000
0100
0001
0100
1000
0100
0000
0011
0000
1100
0000
0011
0000
,
1100
0000
0000
0000
0001
0000
0100
0000
0001
0000
0010
0100
1000
0000
0001
0100
,
0000
0000
0000
0000
0100
1000
0100
0001
0100
0000
1000
0000
1200
0000
0001
0000
,
1000
0010
1000
0000
0310
0000
0100
0001
0000
0100
0001
0000
1000
0010
0100
0000
,
1000
0000
0100
0000
0101
0000
1000
0100
0000
0010
0001
0000
0010
0000
0001
0000
,
1000
0000
0100
0000
1010
0000
0100
0001
0000
1000
0010
0000
0100
0001
0100
0000
,
1000
0000
0100
0000
0101
0000
0010
0100
0000
0001
0100
0000
0010
0000
1000
0000
,
0001
0000
0100
0000
1001
0000
0110
0000
0011
0000
1100
1100
0000
0000
0000
0000
,
2020
0000
3030
0000
1100
0000
0101
0000
1100
0000
0101
0100
0020
0000
0030
1010
,
0000
0000
0000
0000
0100
0001
0100
1000
0100
0000
0101
0000
1010
0000
0101
0000
,
1010
0000
0000
0000
1010
0000
0011
0000
1010
0000
0101
0101
0000
0000
1100
1100
,
0000
0000
0000
0000
0010
0001
1000
0100
0000
0011
0011
0000
1100
0000
0011
0000
,
1100
0000
0000
0000
1000
0000
0010
0100
0000
0000
0010
1000
0010
0000
0011
0000
,
1010
0000
0011
0000
1010
0000
0010
0100
0000
0010
0000
0010
1000
0000
1010
0000
,
0101
0000
1010
0000
0220
0000
0330
1001
0000
0001
0010
0000
0100
0000
1100
0000
,
1010
0000
1100
0000
1010
0000
0100
0001
0000
0010
0000
0100
0010
0000
0011
0000
,
0110
1100
1010
0101
0011
1100
0110
2002
,
0000
0000
0000
0003
3001
0000
0000
0010
0000
0000
0100
0000
1100
0000
0000
0101
,
0000
0000
1010
0000
0110
0000
0100
0000
0001
0000
1000
0000
0100
0000
1000
1100
,
0000
0000
0000
0100
0001
0100
1000
1100
0000
0010
0001
0000
1000
0100
0000
0010
,
1000
0100
0001
0000
1100
0000
1010
0000
0110
0000
0010
0000
0110
0000
1000
0010
,
0000
0000
0000
0100
1000
0100
0001
0100
0000
0110
0000
0010
1000
0000
0001
0100
,
0000
0010
1000
0001
0100
0010
0100
0000
1010
0000
0010
0100
0010
0000
0100
0110
,
0000
0000
1001
0000
0000
1000
0001
0000
0010
0000
0001
1000
0001
0000
1000
1001
,
0000
0000
0110
0000
0000
0000
0011
0000
1010
0000
0011
0000
2200
0000
3300
1100
,
0000
0000
0101
1001
0011
0110
1100
1001
,
1010
0000
0110
0000
0101
0000
1000
0010
0000
0100
0001
0000
1000
0010
0100
0000
,
0001
0100
0010
0000
1001
0000
1000
0000
0001
0000
1000
0000
0001
0000
0010
0001
,
1000
0000
0020
0030
1000
0000
0000
0000
0001
0000
1000
0000
0001
0000
0000
0000
0010
0000
0000
0000
0001
0000
1000
0000
0000
0000
0001
0000
0010
0000
0000
0001
,
0000
0000
1000
0000
0001
0000
0000
0000
0000
0000
0000
0000
2002
0000
3003
0000
0000
0000
0000
0010
0000
0000
2000
0000
0000
0000
3000
0000
0000
0000
0000
0000
,
1001
0001
1001
1000
1001
0001
1000
0001
,
1000
0100
0010
0001
1000
0100
0010
0001
0000
0000
0000
0000
0110
0000
0000
0000
0100
0000
0010
0000
0000
0000
0100
0000
1000
0000
0000
0000
0000
0000
0022
0000
,
0000
0000
0033
0000
0000
0000
1000
0000
0001
1000
0000
0001
0100
0000
0000
1010
,
0000
0000
0110
0000
0000
0000
0101
0000
0000
0100
0000
0M01
0010
0000
0000
020M
,
0000
0000
0000
03M0
0000
0000
1000
0000
0M00
0001
0000
1000
0100
0000
0010
0001
,
0010
0000
0100
0000
1000
0000
0010
0000
2002
0000
0000
0000
0000
0000
0010
0000
0000
0000
0000
0000
0010
0000
0000
00M0
0000
0000
0020
0000
0000
0000
0000
0000
,
0000
0000
0000
3033
;
